» » Jeff Lorber - Step By Step

Jeff Lorber - Step By Step download album

  • Performer: Jeff Lorber
  • Album: Step By Step
  • FLAC: 1131 mb | MP3: 1387 mb
  • Released: 1985
  • Country: US
  • Style: Jazz-Funk, Soul, Electro, Synth-pop
  • Rating: 4.2/5
  • Votes: 311
  • Format: MP1 MP2 AHX DMF VOX AHX TTA
Jeff Lorber - Step By Step download album

BPM Profile Step by Step. Album starts at BPM, ends at BPM (+0), with tempos within the -BPM range. Try refreshing the page if dots are missing). Recent albums by Jeff Lorber.

Детские товары с доставкой по России.

Guitar – Marlon McClainVocals – Audrey WheelerWritten-By – Anita Pointer, Jeff Lorber. Guitar, Bass – P. J. PetersonTenor Saxophone – Lenny PickettWritten-By – Jeff Lorber, P. Peterson.

This is without question Jeff Lorber's finest and most consistant albums of the 1980's and is VERY difficult to locate on C. he classic title track,featuring the dynamic vocals of singer Audrey Wheeler is the main centerpiece of this album and most of the material tends to be very similar-uptempo. vocal funky R&B/fusion with a few light touches. The two instrumentals "Groovacious" and "On The Wild Side"-both recorded with Mic Murphy of The System have a heavy techno-funk element featuring Lorber's experiments with the Yamaha KX-1.

The Jeff Lorber Fusion is the debut album by keyboardist Jeff Lorber as leader of his band "The Jeff Lorber Fusion". All tracks written by Jeff Lorber. Lester McFarland – Bass. Dennis Bradford – Drums. Tod Carver – Guitars. Terry Layne – Saxophones, Flute. Jeff Uusitalo – Trombone. Bruce Smith, Ron Young – Percussion. Dave Dixon – Recording Engineer.

Jeff Lorber (born November 4, 1952 in Philadelphia, Pennsylvania) is an American Grammy Award-nominated keyboardist, composer, and record producer. View full artist profile. Play all. Chuck Loeb.

Прослушать Скачать 04:20. Прослушать Скачать 04:29. Прослушать Скачать 05:20. Lost With You. Прослушать Скачать 03:58. Прослушать Скачать 05:12. Прослушать Скачать 05:17. Прослушать Скачать 05:13. Step by Step Extended Remix. Прослушать Скачать 03:53. You Got Something Album Version. Прослушать Скачать 04:09.

Jeff Lorber - When You Gonna Come Back Home (1985) AOR/Pop. Jeff Lorber - Step By Step (Extended Remix) HQsound.

Step It Up, the fourth offering from the revamped Jeff Lorber Fusion, picks up almost exactly where 2014's Grammy-nominated Hacienda left off - with a couple of twists. Keyboardist Lorber and bassist Jimmy Haslip co-produced the 57-minute, 11-track set of originals. The pair got help from their regular stable of sessionmen including guitarists Paul Jackson, Jr. and Michael Thompson, saxophonist Gary Meek, percussionist Lenny Castro, and a slew of drummers including Vinnie Colaiuta.

Jeff Lorber: best 2 tracks. Jeff Lorber - Burn Brightly He Had A Hat, 2007 03:52. Jeff Lorber - Don't Stop Heard That, 2008 04:44.

Tracklist

Step By Step 4:04
Groovacious 3:51
Every Woman Needs It 4:19
On The Wild Side 4:05
This Is The Night 3:50
Best Part Of The Night 4:13
Pacific Coast Highway 4:47
It Takes A Woman 3:56
When You Gonna Come Back Home 4:13

Versions

Category Artist Title (Format) Label Category Country Year
AL 8-8269, AL8-8269 Jeff Lorber Step By Step ‎(LP, Album) Arista, Arista AL 8-8269, AL8-8269 US 1985
824 684-2 Jeff Lorber Step By Step ‎(CD, Album) Mercury 824 684-2 Germany 1985
90.072 Jeff Lorber Step By Step ‎(LP, Album) Mercury 90.072 Venezuela 1985
AL8-8269 Jeff Lorber Step By Step ‎(LP, Album) Arista AL8-8269 Canada 1985
25PP-166 Jeff Lorber Step By Step ‎(LP, Album) Mercury 25PP-166 Japan 1985
JABH9 Jeff Lorber Step By Step ‎(LP, Album) Club JABH9 Netherlands 1985
824 684-1 Jeff Lorber Step By Step ‎(LP, Album) Mercury 824 684-1 Europe 1985
AL8-8269 Jeff Lorber Step By Step ‎(LP, Album, Club) Arista AL8-8269 Canada 1985
AL 8-8269, AL8-8269 Jeff Lorber Step By Step ‎(LP, Album, Ind) Arista, Arista AL 8-8269, AL8-8269 US 1985
ARCD 8269 Jeff Lorber Step By Step ‎(CD, Album) Arista ARCD 8269 US 1988
WOU 8826 Jeff Lorber Step By Step ‎(CD, Album, RE) Wounded Bird Records, Sony Music WOU 8826 US 2010
SICP-5523 Jeff Lorber Step By Step ‎(CD, Album, Ltd, RE, RM) Arista SICP-5523 Japan 2017


CopamHuk
foobar2000 1.3.17 / Dynamic Range Meter 1.1.1log date: 2018-07-13 18:20:19--------------------------------------------------------------------------------Analyzed: Jeff Lorber / Step By Step [DE 1985 CD]--------------------------------------------------------------------------------DR Peak RMS Duration Track--------------------------------------------------------------------------------DR15 -0.30 dB -18.21 dB 5:13 01-Step By StepDR14 -0.27 dB -16.09 dB 3:51 02-GroovaciuosDR12 -1.65 dB -16.03 dB 4:19 03-Every Woman Needs ItDR15 -0.05 dB -17.42 dB 3:57 04-On The Wild SideDR13 -0.77 dB -16.52 dB 3:50 05-This Is The NightDR14 -1.07 dB -17.30 dB 5:19 06-Best Part Of The NightDR13 -1.11 dB -17.29 dB 4:46 07-Pacific Coast HighwayDR13 -1.31 dB -15.99 dB 4:03 08-It Takes A WomanDR13 -1.33 dB -16.79 dB 4:16 09-When You Gonna Come Back HomeDR15 -1.66 dB -18.44 dB 4:05 10-Step By StepDR15 -1.43 dB -18.74 dB 5:22 11-Best Part Of The Night--------------------------------------------------------------------------------Number of tracks: 11Official DR value: DR14Samplerate: 44100 HzChannels: 2Bits per sample: 16Bitrate: 938 kbpsCodec: ALAC================================================================================
Related to Jeff Lorber - Step By Step: