» » Horace Tapscott With The Pan-Afrikan Peoples Arkestra - Live At I.U.C.C.

Horace Tapscott With The Pan-Afrikan Peoples Arkestra - Live At I.U.C.C. download album

  • Performer: Horace Tapscott
  • Album: Live At I.U.C.C.
  • FLAC: 1485 mb | MP3: 1965 mb
  • Released: 2006
  • Country: US
  • Style: Free Jazz
  • Rating: 4.2/5
  • Votes: 286
  • Format: MOD VOX MP4 AA AHX WMA XM
Horace Tapscott With The Pan-Afrikan Peoples Arkestra - Live At I.U.C.C. download album

Your current browser isn't compatible with SoundCloud. Please download one of our supported browsers. Is your network connection unstable or browser outdated?

Redeye Distribution, The Orchard Music (от лица компании "Nimbus West Records"). Redeye Distribution, The Orchard Music (от лица компании "Nimbus West Records").

Immanuel United Church of Christ) was recorded at that PAPA home-base where, from 1972 to 1981, they performed on the last Sunday of every month. Seven of the eight tracks on this two-CD set are double-digit in length, two surpassing the twenty-minute mark. Those epic pieces, "Macrame" and "Village Dance," are the dual centerpieces of the album. They typify Tapscott's penchant for large-ensemble blending of avant-garde and hard-swing, in an approachable, infectious manner. Billy Higgins, Pharoah Sanders, Gerald Wilson, Tapscott's Pan-Afrikan Peoples Arkestra, and many others played to a crowd of more than one-thousand. Few in the audience knew Tapscott had died just before midnight, aged sixty-four. In South Central LA, he was known by everyone. It is about time the rest of us got on board.

Written-By – Horace Tapscott. 2-3. Desert Fairy Princess. Alto Clarinet – Herbert CalliesBass – David Bryant (4)Drums – Everett Brown J. lute – Kafi Roberts Tenor Saxophone – James Andrews (6)Tuba – Red CallenderWritten-By – Jesse Sharps.

Soul Jazz Records Presents Horace Tapscott with the Pan-Afrikan Peoples Arkestra: Live at . Horace Elva Tapscott (April 6, 1934 – February 27, 1999) was an American jazz pianist and composer. He formed the Pan Afrikan Peoples Arkestra (also known as . or The Ark) in 1961 and led the ensemble through the 1990s. Tapscott was born in Houston, Texas, and moved to Los Angeles, California, at the age of nine. By this time he had begun to study piano and trombone.

The second LP by Horace Tapscott's Pan Afrikan Peoples Arkestra (a 16-piece trumpet-less big band) has four lengthy selections; three originals by bandmembers plus Cal Massey's "Nakatini Suite. Best-known among the sidemen are veteran Red Callender (doubling on tuba and bass) and the powerful altoist Michael Session. Many of the other players (including the pianist-leader) have some space to stretch out and the ensembles (with their unusual voicings and free spots) are quite colorful.

The music of Horace Tapscott and The Pan-Afrikan Peoples Arkestra is part Sun Ra Arkestra, part John Coltrane, part Art Ensemble of Chicago. This ground-breaking and monumental album (released here for the first time ever on expanded triple vinyl and double CD) explores the multi-faceted deep and spiritual jazz of Tapscott - Afro-centric rhythms, hypnotic bass lines, Tapscott’s stabbing modal piano playing and stunning flute and horn arrangements. is a true high point in the cannon of great independent underground jazz music recorded during this era.

TITLE "Breeze" PERFORMER "Horace Tapscott & Pan Afrikan Peoples Arkestra" INDEX 01 00:00:00 FILE "03 - Horacio. wav" WAVE TRACK 03 AUDIO TITLE "Horacio" PERFORMER "Horace Tapscott & Pan Afrikan Peoples Arkestra" INDEX 01 00:00:00 FILE "04 - Clarrise. wav" WAVE TRACK 04 AUDIO TITLE "Clarrise" PERFORMER "Horace Tapscott & Pan Afrikan Peoples Arkestra" INDEX 01 00:00:00 FILE "05 - Maui. Tapscott's Pan-Afrikan Peoples Arkestra (consisting of two pianos, six reeds, two trombones, Red Callender on tuba, cello, two basses, a drummer, and a percussionist) had an unusual sound and made three records during 1978-1979.

100% Secure Shopping.

by Pan-Afrikan Peoples Arkestra, released 31 July 2014 1. Macrame (disc 1) 2. Future Sally's Time (disc 1) 3. Noissessprahs (disc 1) 4. McKowsky's First Fifth (disc 1) 5. Village Dance (disc 2) 6. . supported by 10 fans who also own Live At . Torn between the NY sessions and the London. ILL Considered - live at total refreshment centre by ILL considered. supported by 9 fans who also own Live At . Thanks guys for pressing this fabulous set on vinyl. So full of energy and improvisation! Wish I could be there at one of your outings. Keep up the great work! Torsten. The Legend of Horace Tapscott and His Arkestra on Nimbus West Records.

Tracklist Hide Credits

1-1 Macrame
Alto Saxophone – Michael Sessions*Bass – David Bryant Drums – Everett Brown Jr.Flute – Herbert Callies, Kafi Roberts*Soprano Saxophone – Jesse SharpsTenor Saxophone – James Andrews Written-By – J. Sharps*
20:25
1-2 Future Sally's Time
Written-By – A. Blythe*, Stanley Crouch
12:10
1-3 Noissessprahs
Bass – David Bryant Cello – Louis SpearsFrench Horn – Bob Watt, Jr*Percussion – Mike Daniels Piano – Linda HillTenor Saxophone – Desta WalkerWritten-By – S. Matteen*
16:13
1-4 McKowsky's First Fifth
Written-By – J. Sharps*
16:00
2-1 Village Dance
Written-By – S. Matteen*
26:13
2-2 L.T.T.
Written-By – H. Tapscott*
14:50
2-3 Desert Fairy Princess
Alto Clarinet – Herbert CalliesBass – David Bryant Drums – Everett Brown Jr.Flute – Kafi Roberts*Tenor Saxophone – James Andrews Tuba – Red CallenderWritten-By – J. Sharps*
11:00
2-4 Lift Every Voice
Piano, Vocals – Unknown Artist
1:58

Credits

  • Baritone Saxophone – John Williams (tracks: 1-2 to 2-3)
  • Bass – Alan Hines (tracks: 1-1 to 2-3), Roberto Miranda (tracks: 1-2 to 2-2)
  • Drums – Billy Hinton (tracks: 1-2 to 2-2)
  • Flute – Adele Sebastian (tracks: 1-2 to 2-3), Aubrey Hart (tracks: 1-2 to 2-2)
  • Percussion – Daa'oud Woods (tracks: 1-2 to 2-3)
  • Piano, Co-producer – Horace Tapscott (tracks: 1-1, 1-2, 2-1, 2-2, 2-3)
  • Producer – Tom Albach
  • Soprano Saxophone – Billy Harris* (tracks: 1-2 to 2-3)
  • Tenor Saxophone – Sabia Matteen* (tracks: 1-1 to 2-3)
  • Trombone – Lester Robertson (tracks: 1-2 to 2-3)

Notes

Recorded February to June 1979 at the Imannuel United Church of Christ, 85th and Holmes, Los Angeles. The U.G.M.A.A (=Union Of God's Musicians & Artists Ascension) Foundation was involved.

Other versions

Category Artist Title (Format) Label Category Country Year
NIMBUS No. 357, #357 Horace Tapscott With The Pan-Afrikan Peoples Arkestra Horace Tapscott With The Pan-Afrikan Peoples Arkestra - Live At I.U.C.C. ‎(2xLP, Album) Nimbus West Records, Nimbus West Records NIMBUS No. 357, #357 US 1979
SJR CD424 Horace Tapscott With The Pan-Afrikan Peoples Arkestra Horace Tapscott With The Pan-Afrikan Peoples Arkestra - Live At I.U.C.C. ‎(2xCD, Album, Ltd, RE) Soul Jazz Records SJR CD424 UK 2019
OTR-007 Horace Tapscott With The Pan-Afrikan Peoples Arkestra Horace Tapscott With The Pan-Afrikan Peoples Arkestra - Live At I.U.C.C. ‎(3xLP, RE, 180) Outernational Sounds OTR-007 UK 2019