» » Retrosweep - Diffusion

Retrosweep - Diffusion download album

  • Performer: Retrosweep
  • Album: Diffusion
  • FLAC: 1553 mb | MP3: 1312 mb
  • Released: 1997
  • Country: Germany
  • Style: Techno
  • Rating: 4.3/5
  • Votes: 834
  • Format: VOX ASF XM MOD DTS WMA MP2
Retrosweep - Diffusion download album

Retrosweep - Diffusion 12. Traveller - Weaver Part 1 13. Toronto - Skydome 14.

Retrosweep ‎– Diffusion. Label: Global AMBition ‎– GAMB 029-6.

Discography . Songs .

info - каталог торрент ссылок.

Commander Tom: In the Mix 4 - Студийный альбом от Commander Tom. Вышел 19 марта 1999г. В альбом вошло 20 треков.

Record/Vinyl + Digital Album. Diffusion' by Dublock is an accomplished album of 'Ambient Techno', there's a beautiful subtelty to the compositions through which the beats weave a course.

Retrosweep - Diffusion 07. Khardasia - Milzbrand 08. Khardasia - Schwarzer Regen 0. MikeroBenics - The Prediction (Album Version). wav" WAVE TRACK 01 AUDIO TITLE "The Prediction (Album Version)" PERFORMER "MikeroBenics" INDEX 01 00:00:00 FILE "1-02. Luc Orient - Tunnel Ride. wav" WAVE TRACK 02 AUDIO TITLE "Tunnel Ride" PERFORMER "Luc Orient" INDEX 01 00:00:00 FILE "1-03. Lexicon - Schlangenline. wav" WAVE TRACK 03 AUDIO TITLE "Schlangenline" PERFORMER "Lexicon" INDEX 01 00:00:00 FILE "1-04.

The convection–diffusion equation is a combination of the diffusion and convection (advection) equations, and describes physical phenomena where particles, energy, or other physical quantities are transferred inside a physical system due to two processes: diffusion and convection. Depending on context, the same equation can be called the advection–diffusion equation, drift–diffusion equation, or (generic) scalar transport equation.

MikeroBenics - The Prediction (Album Version). Spicelab - Blue Manna. Retrosweep - Diffusion. Khardasia - Milzbrand. Khardasia - Schwarzer Regen. Lexicon - Different Drum. DJ La Monde - Recall. Jim & Jack - Scenographic. MikeroBenics - Witch Ride (Unreleased Long Version).

Tracklist

A Diffusion 11:26
B Brain Twister 9:12

Credits

  • Producer, Written-By – Andy Trex And Commander Tom*

Notes

Published buy UCM Music Publishing / EMI Songs

Barcode and Other Identifiers

  • Barcode: 4 017866 320292

Other versions

Category Artist Title (Format) Label Category Country Year
GAMB 029-6 Retrosweep Diffusion ‎(12", Promo, W/Lbl) Global AMBition GAMB 029-6 Germany 1997